<?xml version="1.0" standalone="no"?>
<!DOCTYPE svg PUBLIC "-//W3C//DTD SVG 1.1//EN" "http://www.w3.org/Graphics/SVG/1.1/DTD/svg11.dtd" >
<svg xmlns="http://www.w3.org/2000/svg">
<metadata>Generated by @xcom/icon</metadata>
<defs>
<font id="xicons" horiz-adv-x="1024">
<font-face units-per-em="1024" ascent="960" descent="-64" />
<missing-glyph horiz-adv-x="1024" />
<glyph unicode="&#x20;" horiz-adv-x="512" d="" />
<glyph unicode="&#xe900;" glyph-name="arrow-down" d="M511.997 250.246l-320 320 66.815 75.506 253.185-252.61 251.997 252.61 68.003-76.837-320-318.669z" />
<glyph unicode="&#xe901;" glyph-name="arrow-down-slim" d="M621.754 206.605c4.902-4.941 4.867-12.918-0.074-17.821l-109.68-108.784-109.68 108.784c-4.941 4.902-4.976 12.88-0.074 17.821 4.899 4.941 12.88 4.976 17.821 0.074l91.933-91.184 91.933 91.184c4.941 4.902 12.922 4.867 17.821-0.074zM512 816c6.96 0 12.602-5.642 12.602-12.601v-705.652c0-6.96-5.642-12.602-12.602-12.602s-12.602 5.642-12.602 12.602v705.652c0 6.959 5.642 12.601 12.602 12.601z" />
<glyph unicode="&#xe902;" glyph-name="arrow-left" d="M314.25 448l320 320 75.504-66.815-252.608-253.185 252.608-251.997-76.838-68.003-318.665 320z" />
<glyph unicode="&#xe903;" glyph-name="arrow-left-2" d="M150.486 464l223.024 226.975c8.013 9.521 22.093 10.63 31.446 2.475 9.357-8.153 10.445-22.482 2.432-32.003-0.746-0.887-1.558-1.716-2.432-2.475l-184.887-188.39h637.63c12.314 0 22.301-10.16 22.301-22.698s-9.987-22.698-22.301-22.698h-637.63l184.887-188.16c9.357-8.154 10.445-22.48 2.432-32.003-8.013-9.52-22.090-10.63-31.446-2.474-0.87 0.762-1.686 1.587-2.432 2.474l-223.026 226.976c-8.646 8.848-8.646 23.146 0.002 32z" />
<glyph unicode="&#xe904;" glyph-name="arrow-right" d="M709.754 447.997l-320-320-75.506 66.816 252.61 253.184-252.61 251.999 76.837 68.002 318.669-320.001z" />
<glyph unicode="&#xe905;" glyph-name="arrow-right-2" d="M873.514 432l-223.024-226.973c-8.013-9.523-22.093-10.63-31.446-2.477-9.357 8.154-10.445 22.483-2.432 32.003 0.746 0.886 1.558 1.715 2.432 2.474l184.886 188.39h-637.628c-12.316 0-22.302 10.163-22.302 22.698 0 12.538 9.986 22.698 22.302 22.698h637.628l-184.886 188.16c-9.357 8.153-10.445 22.482-2.432 32.003s22.090 10.631 31.446 2.476c0.87-0.761 1.686-1.588 2.432-2.476l223.027-226.976c8.646-8.848 8.646-23.146-0.003-32z" />
<glyph unicode="&#xe906;" glyph-name="arrow-up" d="M512 645.75l320-319.999-66.816-75.504-253.184 252.608-251.998-252.608-68.002 76.835 320 318.668z" />
<glyph unicode="&#xe907;" glyph-name="bag-fill" d="M480.077 818.387c-16.256-5.402-30.864-14.853-42.458-27.464-11.587-12.61-19.779-27.963-23.795-44.615-1.866-7.986-2.653-20.948-2.685-44.713v-33.42l-86.416-1.244-10.996-5.042c-13.618-6.284-26.644-19.901-31.425-32.898-2.814-7.658-32.536-223.827-65.859-479.082-1.865-14.4-2.061-21.962-0.785-28.736 1.606-9.466 5.519-18.39 11.394-25.984s13.529-13.622 22.289-17.552l10.769-5.107h504.546l10.771 5.107c12.57 5.958 23.11 16.102 28.378 27.363 8.25 17.546 8.445 14.634-10.246 155.712-45.235 340.915-47.754 359.245-51.094 368.278-4.778 12.996-17.805 26.614-31.424 32.898l-10.998 5.042-86.413 1.244v34.043c0 25.335-0.688 36.825-2.752 44.81-4.266 16.722-12.704 32.087-24.525 44.659-11.824 12.572-26.643 21.939-43.069 27.223-20.634 6.246-42.678 6.063-63.206-0.524zM536.31 771.611c4.976-2.422 12.57-8.313 16.858-13.093 12.045-13.42 13.715-19.934 14.63-57.936l0.822-32.734h-112.474l0.819 32.734c0.915 37.413 2.586 44.32 13.715 56.955 17.347 19.738 42.848 25.204 65.629 14.075z" />
<glyph unicode="&#xe908;" glyph-name="basket" d="M480.723 811.023c-15.93-5.295-30.25-14.558-41.61-26.918s-19.389-27.408-23.325-43.727c-1.827-7.828-2.598-20.532-2.63-43.824v-32.756l-84.698-1.219-10.779-4.94c-13.346-6.16-26.115-19.508-30.799-32.244-2.759-7.507-31.89-219.376-64.549-469.552-1.828-14.118-2.021-21.53-0.77-28.17 1.574-9.277 5.409-18.022 11.167-25.466s13.261-13.35 21.845-17.203l10.555-5.005h494.513l10.557 5.005c12.317 5.84 22.65 15.786 27.814 26.819 8.083 17.197 8.275 14.342-10.042 152.618-44.339 334.134-46.81 352.099-50.080 360.954-4.685 12.736-17.453 26.084-30.8 32.244l-10.781 4.94-84.694 1.219v33.365c0 24.831-0.675 36.092-2.694 43.92-4.182 16.389-12.454 31.449-24.038 43.77-11.587 12.322-26.112 21.502-42.211 26.682-20.224 6.122-41.834 5.942-61.952-0.514zM535.84 765.178c4.877-2.374 12.32-8.149 16.522-12.833 11.808-13.154 13.443-19.538 14.342-56.785l0.8-32.082h-110.234l0.803 32.082c0.899 36.67 2.534 43.439 13.443 55.823 17.002 19.346 41.994 24.703 64.323 13.796zM412.774 590.33l0.448-26.083h44.336l0.451 26.083 0.48 26.083h107.795l0.483-26.083 0.448-26.083h44.339l0.448 26.083 0.48 26.083 37.088 0.48c36.573 0.451 37.152 0.387 41.674-3.494l4.589-3.946 31.44-235.869c17.293-129.709 30.992-237.696 30.416-239.974-2.374-9.53 8.019-9.11-230.48-9.11-198.845 0-251.972 0.256-252.903 2.694-0.752 3.053-1.097 6.192-1.027 9.334 0 6.096 57.459 442.733 61.756 469.267l1.862 11.581 53.738-0.483 21.654-0.48 0.483-26.083z" />
<glyph unicode="&#xe909;" glyph-name="basket-full" d="M686.298 534.518l-146.531 226.116c-6.355 9.652-17.062 14.477-27.766 14.477s-21.411-4.826-27.766-14.822l-146.531-225.771h-160.248c-18.4 0-33.454-15.51-33.454-34.47 0-3.101 0.334-6.205 1.338-9.306l84.974-319.53c7.695-28.954 33.455-50.323 64.233-50.323h434.91c30.778 0 56.538 21.37 64.566 50.323l84.973 319.53 1.005 9.306c0 18.96-15.056 34.47-33.456 34.47h-160.246zM411.635 534.518l100.365 151.663 100.365-151.663h-200.73zM512 258.765c-36.8 0-66.909 31.024-66.909 68.938 0 37.917 30.109 68.938 66.909 68.938s66.909-31.021 66.909-68.938c0-37.914-30.109-68.938-66.909-68.938z" />
<glyph unicode="&#xe90a;" glyph-name="check-circle" d="M482.973 767.73c-44.515-5.572-74.589-14.251-110.486-31.897-87.461-43.042-147.893-119.196-170.695-215.113-6.885-28.854-7.526-35.226-7.494-73.658 0-31.382 0.224-35.965 2.434-48.035 13.867-76.573 46.436-137.101 101.039-187.795 41.343-38.432 94.956-65.651 152.344-77.373 19.437-3.971 28.79-4.931 54.73-5.638 18.381-0.48 26.867-0.224 38.973 1.187 78.688 9.126 144.467 41.728 198.429 98.317 45.411 47.587 74.874 108.531 84.963 175.562 2.368 15.882 3.296 54.826 1.728 72.598-11.85 132.97-102.64 243.679-229.907 280.316-15.824 4.501-31.955 7.852-48.262 10.024-10.054 1.185-61.328 2.306-67.795 1.505zM540.394 712.807c47.043-5.092 99.501-26.869 136.298-56.588 10.47-8.486 31.126-29.015 39.744-39.55 21.616-26.486 42.304-66.87 50.534-98.797 19.76-76.477 7.27-152.41-35.869-217.581-40.064-60.589-102.896-101.549-176.074-114.81-14.986-2.72-49.158-3.843-68.438-2.24-40.381 3.363-87.267 20.208-122.109 43.939-58.479 39.837-99.855 102.928-112.633 171.846-4.484 24.176-5.508 61.165-2.338 83.84 10.985 78.365 53.418 145.843 118.558 188.531 33.242 21.777 75.13 37.117 112.758 41.376 11.754 1.313 47.59 1.345 59.568 0.032zM641.206 560.24c-4.899-2.211-11.594-8.39-82.976-76.349-25.267-24.083-55.533-52.842-67.219-63.92l-21.299-20.112-41.664 42.208c-45.955 46.531-44.067 45.059-57.133 44.323-4.208-0.058-8.336-1.194-11.981-3.302s-6.685-5.117-8.835-8.739c-2.915-4.707-3.235-6.118-3.235-13.93 0-7.654 0.352-9.226 2.819-12.909 7.494-11.142 101.84-107.859 108.147-110.838 1.891-0.896 6.086-1.952 9.322-2.336 11.978-1.411 9.702-3.331 120.445 102.512 88.71 84.832 87.043 83.136 89.222 90.79 1.043 3.754 1.334 7.674 0.851 11.539-0.486 3.866-1.731 7.597-3.67 10.973-6.307 10.218-21.904 15.021-32.794 10.090z" />
<glyph unicode="&#xe90b;" glyph-name="check-fill" d="M511.997 816.003c-203.135 0-367.999-164.864-367.999-368s164.864-368 367.999-368c203.136 0 368 164.864 368 368s-164.864 368-368 368zM438.397 264.003l-183.999 184 51.888 51.888 132.111-131.744 279.312 279.312 51.888-52.256-331.2-331.2z" />
<glyph unicode="&#xe90c;" glyph-name="close" d="M783.997 671.266l-54.4 55.817-217.6-223.265-217.6 223.265-54.4-55.817 217.6-223.266-217.6-223.267 54.4-55.818 217.6 223.267 217.6-223.267 54.4 55.818-217.6 223.267 217.6 223.266z" />
<glyph unicode="&#xe90d;" glyph-name="close-circle" d="M489.571 816.131c-16.445-1.443-32.57-3.398-42.317-5.161-57.27-10.355-111.286-34.088-157.649-69.266-46.364-35.178-83.766-80.808-109.16-133.172-17.567-36.547-27.761-70.109-34.141-112.394-3.077-20.515-3.077-75.302 0.032-95.882 10.483-69.757 36.449-130.246 78.411-182.822 17.114-20.445 36.005-39.338 56.452-56.451 65.498-52.49 146.874-81.187 230.81-81.392 57.258-0.115 113.725 13.341 164.774 39.27 71.258 35.571 129.021 93.347 164.579 164.611 18.848 37.731 29.75 72.835 36.32 116.784 2.758 18.432 3.142 72.704 0.675 90.944-9.104 67.13-32.989 126.467-71.456 177.597-61.517 81.777-150.829 133.132-253.219 145.571-11.699 1.411-54.592 2.596-64.112 1.763zM550.477 780.868c95.757-10.483 183.686-63.986 239.018-145.409 41.715-61.536 61.632-135.261 56.582-209.43-7.149-99.44-54.691-186.762-134.032-246.422-64.435-48.438-149.066-72.672-228.246-65.363-158.262 14.586-282.901 133.901-304.027 291.046-2.628 19.392-2.981 62.96-0.673 80.784 10.162 78.698 42.091 144.576 96.299 198.784 46.478 46.836 105.867 78.747 170.574 91.651 34.426 6.652 69.648 8.121 104.506 4.36zM354.963 616.544c-8.464-4.326-13.142-10.963-13.882-19.587-1.12-13.526-2.467-11.891 68.957-83.315l65.427-65.363-65.363-65.43c-44.944-45.008-65.942-66.87-67.29-70.173-2.474-6.624-2.554-13.904-0.224-20.579 3.104-5.942 8.022-10.736 14.042-13.69 6.499-1.91 13.44-1.696 19.811 0.611 3.302 1.376 25.005 22.214 70.173 67.318l65.395 65.363 64.755-64.883c43.437-43.533 66.454-65.683 69.885-67.286 6.582-2.726 13.901-3.12 20.739-1.123 6.019 2.954 10.938 7.747 14.042 13.69 2.33 6.675 2.25 13.955-0.224 20.579-1.347 3.302-22.342 25.165-67.286 70.173l-65.366 65.43 65.43 65.363c71.421 71.424 70.077 69.789 68.954 83.315-1.411 16.864-20.707 27.472-36.192 19.939-3.43-1.667-27.44-24.781-69.981-67.318l-64.723-64.787-65.427 65.363c-45.008 44.944-66.87 65.942-70.173 67.29-3.437 1.392-7.133 2.035-10.838 1.878-3.702-0.154-7.331-1.101-10.64-2.778z" />
<glyph unicode="&#xe90e;" glyph-name="close-circle-fill" d="M144.008 448c0 202.909 165.091 368 367.999 368 202.912 0 368-165.091 368-368s-165.088-368-368-368c-202.908 0-367.999 165.091-367.999 368zM639.392 284.202c5.018-5.018 11.606-7.539 18.195-7.539 6.586 0 13.174 2.522 18.192 7.539 10.064 10.038 10.064 26.326 0 36.39l-127.411 127.408 127.386 127.386c10.064 10.061 10.064 26.326 0 36.387-10.061 10.064-26.326 10.064-36.387 0l-127.386-127.382-127.36 127.357c-10.061 10.064-26.323 10.064-36.387 0-10.061-10.061-10.061-26.326 0-36.387l127.36-127.36-127.36-127.357c-10.061-10.064-10.061-26.326 0-36.39 5.018-5.018 11.606-7.539 18.195-7.539s13.174 2.522 18.192 7.539l127.36 127.36 127.411-127.411z" />
<glyph unicode="&#xe90f;" glyph-name="credit-card" d="M806.397 742.397h-588.799c-40.848 0-73.232-32.752-73.232-73.6l-0.368-441.601c0-40.848 32.752-73.6 73.6-73.6h588.799c40.848 0 73.6 32.752 73.6 73.6v441.601c0 40.848-32.752 73.6-73.6 73.6zM806.397 227.197h-588.799v220.8h588.799v-220.8zM806.397 595.197h-588.799v73.601h588.799v-73.601z" />
<glyph unicode="&#xe910;" glyph-name="currency-pound" d="M714.883 272.522l-19.802-29.472c-17.446-25.958-44.813-43.197-75.082-47.286-27.059-3.661-55.597 3.85-78.464 20.611-17.379 14.611-36.707 26.301-57.338 34.774 21.347 37.846 32.544 80.646 32.544 124.986 0 2.883-0.051 5.763-0.147 8.646h145.53v114.867h-176.598c-28.128 37.43-35.741 64.611-35.741 89.181 0 61.927 48.691 112.308 108.538 112.308 47.459 0 89.024-31.391 103.434-78.113l105.76 34.918c-14.048 45.56-41.168 84.768-78.422 113.386-38.054 29.224-83.274 44.675-130.771 44.675-121.062 0-219.552-101.91-219.552-227.176 0-30.829 6.016-61.184 17.555-89.181h-96.663v-114.867h145.799c0.176-2.874 0.266-5.757 0.266-8.646 0-52.211-30.95-101.229-77.123-122.333-33.228-12.4-63.342-33.091-87.156-59.898l-23.479-26.429 81.736-77.734 23.477 26.432c9.741 10.966 21.773 19.952 34.998 26.17 0 0 8.138 3.229 10.563 4.275 6.666 2.301 13.469 3.933 20.227 4.845 29.798 4.026 60.17-5.046 83.328-24.89l2.739-2.205c37.984-28.608 84.714-44.362 131.581-44.362 9.296 0 18.637 0.624 27.76 1.856 61.232 8.282 116.576 43.13 151.846 95.616l19.802 29.472-91.146 65.574z" />
<glyph unicode="&#xe911;" glyph-name="delete" d="M446.899 767.614c-21.36-3.747-40.157-19.918-47.811-41.053-2.659-7.365-2.851-9.223-3.235-30.005l-0.384-22.16h-168.728l-5.156-2.818c-3.19-1.69-5.937-4.11-8.015-7.062s-3.43-6.354-3.945-9.928c-0.515-3.574-0.179-7.219 0.981-10.638s3.111-6.516 5.695-9.037c6.437-6.406 11.528-7.494 35.962-7.494 15.435 0 20.623-0.32 20.623-1.28 0-11.594 27.091-413.674 28.308-420.237 3.747-20.080 11.56-34.618 26.675-49.731 11.466-11.498 19.277-16.685 32.758-21.904 17.069-6.598 14.285-6.47 156.272-6.147l129.053 0.32 8.55 2.4c10.275 2.979 20.067 7.424 29.075 13.194 7.366 4.995 20.176 17.613 24.819 24.403 7.942 11.654 14.73 28.467 16.429 40.573 0.576 4.032 26.291 411.846 26.291 416.746 0 1.472 2.528 1.664 20.621 1.664 24.435 0 29.526 1.088 35.962 7.494 2.758 2.707 4.79 6.065 5.914 9.763 1.126 3.698 1.306 7.618 0.525 11.404-0.726 3.274-2.147 6.354-4.17 9.029s-4.598 4.882-7.552 6.47l-5.155 2.818h-168.73l-0.416 22.16c-0.352 19.726-0.672 22.896-2.851 29.077-3.197 9.056-8.342 17.302-15.069 24.156s-14.874 12.152-23.869 15.52c-6.534 2.434-6.758 2.434-71.667 2.594-22.589 0.195-45.178 0.099-67.76-0.288zM572.813 718.907c2.467-1.027 4.595-2.724 6.147-4.9 2.275-3.427 2.435-4.643 2.435-21.615v-17.997h-138.787v17.997c0 16.972 0.16 18.189 2.432 21.615 1.552 2.175 3.683 3.872 6.15 4.9 5.251 1.793 116.371 1.793 121.622 0zM703.978 625.818c0.64-0.643-24.336-402.176-25.491-409.83-1.421-9.37-5.571-18.115-11.933-25.142-6.362-7.030-14.653-12.029-23.837-14.374-9.318-2.432-251.955-2.464-261.274-0.032-9.443 2.256-17.965 7.357-24.413 14.614s-10.512 16.317-11.645 25.958c-8.579 136.691-16.733 273.408-24.467 410.15 0 0.608 382.419-0.736 383.059-1.344zM408.694 547.232c-5.6-2.88-9.885-7.798-11.978-13.738-0.672-2.339-1.056-52.294-1.056-132.672 0-143.11-0.544-132.925 7.174-140.835 2.554-2.573 5.69-4.499 9.142-5.613s7.12-1.382 10.698-0.787c3.578 0.595 6.96 2.042 9.866 4.211 2.906 2.173 5.248 5.011 6.832 8.272l2.723 5.318 0.32 127.034c0.224 93.059 0 128.605-0.899 132.765-3.104 14.381-19.757 22.515-32.822 16.045zM501.53 547.168c-5.418-2.822-9.539-7.629-11.498-13.418-1.984-5.603-2.208-257.59-0.224-264.317 1.987-6.659 9.734-13.898 16.653-15.562 3.811-1.082 7.85-1.069 11.654 0.035s7.222 3.254 9.866 6.208c2.72 2.621 4.842 5.798 6.211 9.318 1.987 6.726 1.76 258.714-0.224 264.317-1.075 3.142-2.806 6.022-5.078 8.442-2.275 2.422-5.037 4.333-8.109 5.603-3.069 1.267-6.371 1.869-9.693 1.76-3.318-0.106-6.579-0.922-9.558-2.387zM596.317 547.808c-3.101-1.44-5.882-3.488-8.176-6.026-2.294-2.534-4.054-5.507-5.178-8.736-2.307-7.75-2.371-254.902-0.064-262.557 5.283-17.581 25.875-23.216 38.269-10.502 7.715 7.91 7.171-2.275 7.171 140.707 0 93.443-0.32 129.917-1.216 132.896-3.715 12.394-18.829 19.373-30.806 14.218z" />
<glyph unicode="&#xe912;" glyph-name="delete-1" d="M401.494 755.111l-17.152-18.745h-124.709v-70.494h504.729v70.494l-126.714 0.361-33.059 36.889-185.984 0.2-17.11-18.705zM294.297 626.781c-0.481-0.922-0.281-102.778 0.441-226.381l1.282-224.659 5.049-10.294c6.893-13.978 21.12-29.68 32.099-35.408 8.698-4.525 13.344-4.845 100.186-6.89 113.088-2.602 241.645 0.282 254.227 5.728 9.859 4.285 23.763 18.224 31.821 32.003l6.010 10.214 1.683 117.955c0.963 64.886 1.805 167.786 1.843 228.666l0.16 110.707h-216.96c-119.341 0-217.36-0.762-217.841-1.642zM658.048 374.525l0.56-180.080h-293.181v361.322l292.058-1.162 0.563-180.080z" />
<glyph unicode="&#xe913;" glyph-name="delete-circle" d="M168.533 448c0 189.693 153.774 343.467 343.467 343.467s343.466-153.774 343.466-343.467c0-189.693-153.773-343.466-343.466-343.466s-343.467 153.773-343.467 343.466zM512 816c-203.241 0-368-164.759-368-368s164.759-368 368-368c203.242 0 368 164.758 368 368s-164.758 368-368 368zM440.448 287.002c-19.677 0-35.779 16.099-35.779 35.776v214.666h214.669v-214.666c0-19.677-16.099-35.776-35.779-35.776h-143.11zM583.558 501.667h-143.11v-178.89h143.11v178.89zM556.726 608.998l17.888-17.888h62.611v-35.776h-250.445v35.776h62.611l17.888 17.888h89.446z" />
<glyph unicode="&#xe914;" glyph-name="delete-fill" d="M456.566 812.524c-106.682-16.214-201.709-79.534-259.066-172.624-20.132-32.621-38.344-79.597-46.378-119.619-21.252-105.619 5.569-215.594 73.616-302.019 22.981-29.126 62.254-63.766 96.116-84.659 61.936-38.262 144.064-58.256 216.368-52.682 92.595 7.146 174.438 45.376 238.611 111.482 49.587 50.678 83.334 114.733 97.11 184.32 23.462 116.576-12.483 240.362-94.451 325.345-49.581 51.367-109.594 86.648-176.614 103.791-40.426 10.318-102.518 13.17-145.312 6.665zM565.805 600.614l8.419-8.554h62.413v-35.891h-249.206v35.891h62.413l8.419 8.554 8.416 8.525h90.707l8.419-8.525zM619.578 428.41c0-71.523-0.64-111.194-1.824-115.456-1.709-4.813-4.33-9.251-7.715-13.072-11.203-12.403-8.096-12.019-98.006-12.019-89.907 0-86.803-0.384-98.003 12.019-3.389 3.821-6.006 8.259-7.715 13.072-1.184 4.262-1.824 43.933-1.824 115.456v108.95h215.088v-108.95zM440.336 412.611v-88.858h143.392v177.718h-143.392v-88.861z" />
<glyph unicode="&#xe915;" glyph-name="edit" d="M155.152 241v-148.666h148.666l438.467 438.464-148.666 148.668-438.467-438.466zM857.252 645.769c15.462 15.461 15.462 40.437 0 55.898l-92.768 92.768c-15.459 15.461-40.436 15.461-55.898 0l-72.549-72.549 148.666-148.666 72.549 72.549z" />
<glyph unicode="&#xe916;" glyph-name="edit-outline" d="M695.467 774.233c-24.346-2.532-47.2-12.791-67.233-30.159-11.847-10.259-393.656-394.763-397.519-400.314-2.824-4.056-42.366-186.213-42.366-195.205 0-12.369 12.239-25.19 24.089-25.19 9.155 0 190.045 39.412 194.588 42.366 5.229 3.441 391.615 392.586 400.607 403.493 16.232 19.608 26.131 45.093 27.757 71.323 4.999 80.316-59.637 142.095-139.922 133.687zM732.315 719.012c16.682-5.075 30.965-16.017 40.209-30.804s12.822-32.42 10.076-49.641c-3.568-21.653-8.018-28.244-41.553-62.005l-30.58-30.745-14.479 14.283c-7.953 7.857-30.906 31.297-51.001 52.072l-36.523 37.757 29.249 29.282c36.814 36.879 46.521 42.625 72.884 43.047 6.2 0.097 15.289-1.233 21.718-3.246zM526.882 360.253l-146.835-147.71-65.121-14.153c-35.808-7.792-65.317-13.93-65.577-13.669s5.778 29.867 13.408 65.806l13.894 65.35 293.473 295.744 103.626-103.623-146.866-147.745z" />
<glyph unicode="&#xe917;" glyph-name="email" d="M806.4 742.4h-588.8c-40.48 0-73.232-33.12-73.232-73.6l-0.368-441.6c0-40.48 33.12-73.6 73.6-73.6h588.8c40.48 0 73.6 33.12 73.6 73.6v441.6c0 40.48-33.12 73.6-73.6 73.6zM806.4 595.2l-294.4-184-294.4 184v73.6l294.4-184 294.4 184v-73.6z" />
<glyph unicode="&#xe918;" glyph-name="error" d="M570.698 197.923v87.632c0 4.41-1.379 7.99-4.134 10.746s-6.061 4.134-9.92 4.134h-89.283c-3.856 0-7.165-1.379-9.92-4.134s-4.134-6.336-4.134-10.746v-87.632c0-4.406 1.379-7.99 4.134-10.746s6.064-4.41 9.92-4.96h89.283c3.859 0 7.165 1.654 9.92 4.96s4.134 6.89 4.134 10.746zM569.872 369.878l8.266 212.461c0 3.306-1.379 6.061-4.134 8.266-3.856 3.306-7.715 4.96-11.574 4.96h-100.854c-3.309 0-7.165-1.654-11.574-4.96-2.755-2.205-4.134-5.51-4.134-9.92l7.44-210.806c0-2.755 1.654-5.238 4.96-7.44 3.309-2.205 6.89-3.034 10.749-2.48h85.149c4.41 0 8.266 0.826 11.574 2.48 3.306 1.651 4.685 4.131 4.134 7.44zM564.083 801.412l353.827-649.783c11.021-19.29 10.746-38.579-0.829-57.869-4.96-9.37-12.125-16.531-21.494-21.494-9.366-4.96-19.011-7.715-28.934-8.266h-709.303c-9.921 0-19.565 2.755-28.934 8.266-9.369 5.514-16.534 12.678-21.494 21.494-11.574 19.29-11.849 38.579-0.827 57.869l354.651 649.783c4.96 9.369 12.125 16.81 21.494 22.321s19.29 8.267 29.763 8.267c10.47 0 20.39-2.756 29.76-8.267s16.81-12.952 22.32-22.321z" />
<glyph unicode="&#xe919;" glyph-name="exclamation-circle-fill" d="M512 848c220.915 0 400-179.086 400-400s-179.085-400-400-400c-220.914 0-400 179.085-400 400s179.086 400 400 400zM513.686 269.251c-6.816 0.624-13.699-0.307-20.093-2.752-20.032-8.051-32.246-25.658-32.25-46.531 0-14.698 3.699-25.389 12.218-35.030 9.738-11.091 22.71-16.986 37.219-16.938 21.626 0.048 37.45 9.792 46.813 28.749 4.864 9.917 5.328 12.211 4.72 23.533-1.453 28.413-20.778 47.888-48.627 48.97zM512.125 727.844c-6.691-0.048-14.506-1.003-17.312-2.125-6.8-2.395-13.030-6.19-18.314-11.094-5.277-4.902-9.514-10.839-12.406-17.437-3.597-7.758-3.594-8.804-3.594-171.751v-163.875l3.69-8.061c2.013-4.4 6.896-11.443 10.781-15.658 20.080-21.766 55.574-21.030 75.469 1.626 13.757 15.626 13.062 5.315 13.062 186.874v161.314l-4.47 9.437c-6.32 13.388-12.218 19.664-24.25 25.656-6.842 3.997-14.762 5.773-22.656 5.094z" />
<glyph unicode="&#xe91a;" glyph-name="filter" d="M829.267 749.833c-5.152 11.797-14.067 17.703-26.794 17.703h-580.959c-12.707 0-21.636-5.906-26.781-17.703-5.141-12.402-3.025-22.999 6.357-31.771l223.77-223.764v-220.586c0-7.878 2.874-14.675 8.621-20.435l116.189-116.182c5.45-5.747 12.256-8.63 20.429-8.63 3.629 0 7.408 0.762 11.344 2.272 11.805 5.149 17.709 14.074 17.709 26.781v336.781l223.763 223.762c9.386 8.772 11.494 19.366 6.352 31.773z" />
<glyph unicode="&#xe91b;" glyph-name="hamburger" d="M159.595 671.571c-13.102-4.682-18.755-14.486-13.838-24.025 2.208-4.24 8.244-8.95 13.985-10.864 6.006-2.003 698.44-2.003 704.447 0 9.187 3.091 15.811 10.599 15.811 17.989 0 5.035-4.682 11.394-11.101 14.957l-5.446 3.062-349.632 0.265c-289.481 0.206-350.428-0.029-354.226-1.384zM159.595 465.472c-13.102-4.682-18.755-14.486-13.838-24.026 2.208-4.24 8.244-8.95 13.985-10.864 6.006-2.003 698.44-2.003 704.447 0 9.187 3.091 15.811 10.598 15.811 17.987 0 5.037-4.682 11.395-11.101 14.96l-5.446 3.059-349.632 0.266c-289.481 0.208-350.428-0.029-354.226-1.382zM159.595 259.373c-13.102-4.682-18.755-14.486-13.838-24.026 2.208-4.24 8.244-8.95 13.985-10.864 6.006-2.003 698.44-2.003 704.447 0 9.187 3.091 15.811 10.598 15.811 17.987 0 5.037-4.682 11.395-11.101 14.96l-5.446 3.059-349.632 0.266c-289.481 0.208-350.428-0.029-354.226-1.382z" />
<glyph unicode="&#xe91c;" glyph-name="home" d="M425.6 80.8v259.2h172.8v-259.2h216v345.6h129.6l-432 388.801-432-388.801h129.6v-345.6h216z" />
<glyph unicode="&#xe91d;" glyph-name="info" d="M512 848c-219.703 0-400-180.297-400-400s180.297-400 400-400c219.702 0 400 180.298 400 400s-180.298 400-400 400zM558.874 260.499c0-25.84-21.034-46.874-46.874-46.874s-46.874 21.034-46.874 46.874v234.374c0 25.843 21.034 46.877 46.874 46.877s46.874-21.034 46.874-46.877v-234.374zM512 588.624c-25.84 0-46.874 21.037-46.874 46.877s21.034 46.874 46.874 46.874c25.84 0 46.874-21.035 46.874-46.874s-21.034-46.877-46.874-46.877z" />
<glyph unicode="&#xe91e;" glyph-name="location" d="M487.888 815.391c-53.683-5.186-104.442-26.865-145.309-62.060-40.866-35.195-69.833-82.179-82.922-134.499-10.521-42.486-10.044-85.411 1.393-132.406 13.087-53.632 39.737-111.99 83.030-181.75 21.885-35.229 45.933-70.493 97.142-142.378 11.766-16.534 27.933-39.555 35.926-51.174 7.99-11.584 15.834-22.435 17.376-24.122 4.874-5.28 9.2-7.002 17.52-7.002 6.342 0 7.955 0.33 11.987 2.566 5.242 2.896 6.195 4.106 22.362 27.638 6.234 9.091 21.446 30.758 33.798 48.131 33.36 46.925 46.995 66.352 60.304 85.744 73.203 106.931 111.328 184.79 125.843 257.008 7.296 36.365 7.405 74.819 0.33 108.579-10.995 51.987-37.606 99.376-76.269 135.826-38.666 36.45-87.539 60.223-140.083 68.138-20.72 2.379-41.606 2.968-62.429 1.76zM540.454 764.547c35.987-4.953 70.080-19.121 98.976-41.13 8.944-6.818 27.053-24.231 34.864-33.578 19.549-24.083 33.722-52.068 41.568-82.078 4.73-18.842 6.013-29.802 5.939-51.686 0.32-20.115-2.237-40.176-7.587-59.568-16.24-64.554-53.45-135.709-124.637-238.275-25.274-36.166-50.8-72.154-76.579-107.958-1.136-1.21-12.682 14.592-66.864 91.462-89.59 127.238-130.464 208.618-141.828 282.739-2.639 17.011-2.822 45.421-0.44 60.928 5.496 37.837 21.084 73.495 45.125 103.227 11.181 13.133 23.632 25.13 37.171 35.815 44.173 33.102 99.59 47.506 154.291 40.104zM493.242 686.685c-28.016-4.094-53.971-17.087-74.038-37.061s-33.178-45.871-37.402-73.865c-1.526-12.413-1.622-24.957-0.294-37.392 3.856-27.853 16.512-53.744 36.115-73.904 19.603-20.157 45.133-33.526 72.867-38.16 9.494-1.683 30.794-1.904 40.8-0.403 26.672 4.080 51.469 16.173 71.104 34.675s33.181 42.541 38.835 68.922c2.051 9.2 2.858 34.237 1.466 44.134-2.336 17.261-8.064 33.888-16.851 48.928-8.787 15.037-20.464 28.188-34.355 38.695-13.888 10.508-29.722 18.164-46.582 22.528-16.864 4.364-34.422 5.35-51.664 2.902zM520.55 637.565c16.595-1.77 32.262-8.538 44.925-19.411 12.659-10.874 21.718-25.341 25.971-41.478 2.714-10.045 2.931-28.96 0.403-38.931-3.469-14.477-10.774-27.754-21.146-38.435-10.374-10.682-23.43-18.374-37.802-22.269-5.974-1.686-9.347-2.016-20.858-2.016-14.918 0-19.354 0.842-31.414 5.827-34.349 14.15-55.61 52.019-49.341 87.869 3.114 17.891 9.494 30.755 21.517 43.405 15.872 16.752 30.902 23.606 57.664 26.32 3.37-0.157 6.733-0.451 10.080-0.88z" />
<glyph unicode="&#xe91f;" glyph-name="location-fill" d="M342.586 753.331c-40.867-35.195-69.834-82.179-82.924-134.499-10.521-42.486-10.044-85.411 1.393-132.406 13.087-53.632 39.737-111.99 83.028-181.75 21.885-35.229 45.933-70.493 97.146-142.378 11.766-16.534 27.933-39.555 35.923-51.174 7.99-11.584 15.837-22.435 17.376-24.122 4.877-5.28 9.2-7.002 17.523-7.002 6.342 0 7.955 0.33 11.987 2.566 5.242 2.896 6.195 4.106 22.362 27.638 6.23 9.091 21.443 30.758 33.798 48.134 33.357 46.922 46.995 66.349 60.301 85.741 73.206 106.931 111.328 184.79 125.846 257.008 7.296 36.365 7.405 74.819 0.33 108.579-10.995 51.987-37.606 99.376-76.272 135.826-38.662 36.45-87.539 60.223-140.083 68.138-20.72 2.379-41.606 2.968-62.426 1.76-53.683-5.186-104.445-26.865-145.309-62.060zM522.173 654.865c19.498-2.076 37.904-10.029 52.781-22.804 14.874-12.778 25.517-29.773 30.512-48.733 3.187-11.802 3.446-34.026 0.474-45.738-4.077-17.011-12.659-32.611-24.845-45.162s-27.526-21.587-44.41-26.16c-7.021-1.984-10.982-2.371-24.506-2.371-17.53 0-22.739 0.992-36.909 6.848-40.355 16.624-65.334 61.114-57.971 103.235 3.661 21.018 11.155 36.134 25.283 50.995 18.646 19.682 36.304 27.735 67.744 30.923 3.962-0.183 7.914-0.528 11.846-1.034z" />
<glyph unicode="&#xe920;" glyph-name="location-underline" d="M732.803 595.203c0 121.808-98.992 220.8-220.8 220.8s-220.799-98.992-220.799-220.8c0-165.6 220.799-404.8 220.799-404.8s220.8 239.2 220.8 404.8zM438.403 595.203c0 40.48 33.12 73.6 73.6 73.6s73.6-33.12 73.6-73.6c0-40.48-32.752-73.6-73.6-73.6-40.48 0-73.6 33.12-73.6 73.6zM254.404 153.603v-73.6h515.199v73.6h-515.199z" />
<glyph unicode="&#xe921;" glyph-name="lock" d="M722.282 570.666h-35.050v70.096c0 96.732-78.506 175.238-175.238 175.238-96.73 0-175.238-78.507-175.238-175.238v-70.096h-35.046c-38.553 0-70.095-31.542-70.095-70.093v-350.477c0-38.554 31.543-70.096 70.095-70.096h420.572c38.55 0 70.093 31.542 70.093 70.096v350.477c0 38.55-31.542 70.093-70.093 70.093zM511.994 255.238c-38.55 0-70.093 31.542-70.093 70.096 0 38.55 31.542 70.093 70.093 70.093 38.554 0 70.096-31.542 70.096-70.093 0-38.554-31.542-70.096-70.096-70.096zM620.643 570.666h-217.296v70.096c0 59.932 48.717 108.648 108.646 108.648 59.933 0 108.65-48.716 108.65-108.648v-70.096z" />
<glyph unicode="&#xe922;" glyph-name="lock-outline" d="M493.414 815.043c-75.712-7.925-139.014-65.895-153.392-140.417-2.944-15.15-3.821-31.457-3.821-69.576v-34.755l-24.094-0.352c-21.883-0.349-24.689-0.595-30.615-2.525-11.395-3.642-21.719-10.032-30.061-18.605-8.342-8.576-14.446-19.069-17.774-30.56-1.613-5.331-1.718-15.466-1.964-190.323-0.316-202.349-0.596-191.651 5.12-205.050 8.662-20.339 26.372-35.84 47.484-41.485 6.944-1.859 448.467-1.859 455.411 0 10.528 2.886 20.269 8.118 28.493 15.302s14.714 16.134 18.989 26.182c5.718 13.398 5.437 2.701 5.12 205.050-0.243 174.858-0.349 184.992-1.962 190.323-3.328 11.491-9.434 21.984-17.776 30.56-8.342 8.573-18.666 14.963-30.061 18.605-5.926 1.93-8.733 2.176-30.614 2.525l-24.093 0.352v34.755c0 39.452-0.912 55.233-4.173 71.049-5.408 26.362-16.835 51.117-33.389 72.336-16.55 21.218-37.782 38.325-62.035 49.986-29.427 14.279-62.262 20.037-94.794 16.623zM532.166 747.289c16.234-3.068 31.549-9.802 44.778-19.691 13.232-9.889 24.029-22.669 31.568-37.367 2.352-4.594 5.331-11.713 6.701-15.816 4.768-14.764 5.258-20.726 5.258-64.178v-40.083h-216.938v40.083c0 31.669 0.282 41.839 1.405 48.397 3.562 20.834 13.098 40.185 27.446 55.704s32.896 26.54 53.386 31.723c15.203 3.703 31.021 4.121 46.397 1.228zM722.419 324.669v-175.347h-420.832v350.694h420.832v-175.347zM503.587 394.246c-27.354-3.014-50.397-22.688-59.059-50.429-2.803-9.117-3.050-27.075-0.454-36.474 3.165-11.536 9.152-22.102 17.414-30.752 8.266-8.65 18.55-15.11 29.93-18.8 8.698-2.912 25.248-3.613 35.174-1.437 9.434 2.032 22.618 8.416 29.984 14.518 11.2 9.597 19.325 22.282 23.357 36.47 2.595 9.398 2.349 27.357-0.458 36.474-10.554 33.875-41.242 54.288-75.888 50.429z" />
<glyph unicode="&#xe923;" glyph-name="minus" d="M221.094 407.504v77.731h581.818v-77.731h-581.818z" />
<glyph unicode="&#xe924;" glyph-name="minus-circle" d="M172.267 448c0 187.629 152.105 339.733 339.733 339.733s339.734-152.105 339.734-339.733c0-187.629-152.106-339.734-339.734-339.734s-339.733 152.106-339.733 339.734zM512 819.733c-205.303 0-371.733-166.431-371.733-371.733s166.431-371.734 371.733-371.734c205.302 0 371.734 166.432 371.734 371.734s-166.432 371.733-371.734 371.733zM537.254 473.254h102.125c13.338 0 24.15-11.286 24.15-25.254s-10.813-25.254-24.15-25.254h-254.758c-13.338 0-24.15 11.286-24.15 25.254s10.813 25.254 24.15 25.254h152.634z" />
<glyph unicode="&#xe925;" glyph-name="minus-fill" d="M880 448c0 203.241-164.758 368-368 368s-368-164.759-368-368c0-203.242 164.759-368 368-368s368 164.758 368 368zM537.251 473.254h102.125c13.338 0 24.15-11.286 24.15-25.254 0-13.971-10.813-25.254-24.15-25.254h-254.758c-13.338 0-24.15 11.283-24.15 25.254 0 13.968 10.813 25.254 24.15 25.254h152.634z" />
<glyph unicode="&#xe926;" glyph-name="offline" d="M842.78 805.989c-8.001-5.686-682.318-688.923-685.246-694.301-1.65-2.725-2.402-5.9-2.152-9.076s1.492-6.193 3.548-8.627c5.583-7.114-12.358-6.707 286.11-6.707 300.781 0 280.797-0.475 286.313 7.252l2.69 3.745v468.35l58.352 0.033c32.102 0.035 60.565 0.547 63.22 1.159 3.263 0.968 6.258 2.681 8.748 5.004l3.847 3.847 0.34 109.861c0.307 97.64 0.102 110.27-1.634 113.607-1.157 2.015-2.711 3.773-4.571 5.167s-3.982 2.396-6.239 2.944c-2.257 0.548-4.603 0.63-6.896 0.243-2.29-0.388-4.478-1.238-6.43-2.498zM817.043 510.040c-4.945-1.741-9.479-4.48-13.321-8.048-3.84-3.565-6.91-7.882-9.014-12.684-2.621-5.653-2.621-6.333-2.621-124.909v-119.189l2.69-5.855c1.464-3.2 5.004-8.341 7.829-11.406 14.606-15.83 40.411-15.286 54.879 1.192 10.010 11.371 9.5 3.847 9.5 135.906v117.315l-3.235 6.877c-4.596 9.737-8.886 14.299-17.636 18.658-4.976 2.909-10.733 4.205-16.477 3.71-4.869-0.033-10.554-0.749-12.595-1.566zM816.156 176.065c-14.571-5.855-23.457-18.655-23.457-33.839 0-10.691 2.69-18.453 8.886-25.465 7.082-8.069 16.512-12.358 27.066-12.325 15.728 0.035 27.236 7.117 34.043 20.904 3.542 7.217 3.882 8.886 3.44 17.124-1.057 20.666-15.116 34.828-35.372 35.61-4.957 0.456-9.954-0.23-14.606-2.008z" />
<glyph unicode="&#xe927;" glyph-name="package" d="M497.805 823.076c-6.112-1.254-330.375-162.993-336.489-167.852-2.61-2.185-4.836-4.791-6.584-7.712-2.226-4.17-2.32-11.38-2.32-183.153 0-197.29-0.439-186.096 7.869-197.008 2.226-2.915 6.584-7.085 9.687-9.28 9.28-6.55 319.811-167.728 326.646-169.514 8.653-2.288 13.856-0.845 34.515 9.626 99.133 50.317 303.696 156.41 308.336 159.952 6.083 4.64 12.166 12.883 15.331 20.691 1.475 3.699 1.818 32.854 2.131 182.461 0.189 97.942 0 179.987-0.406 182.307-1.162 6.364-10.627 14.986-23.168 21.099-53.939 26.814-107.862 53.661-161.77 80.54-83.114 41.415-152.806 75.838-154.874 76.496-6.109 1.931-12.586 2.393-18.906 1.348zM645.248 707.799l139.824-70.007-107.846-53.891-280.464 140.013 53.702 26.93c29.533 14.829 53.987 26.962 54.333 26.962s63.549-31.508 140.451-70.007zM487.302 629.296c76.589-38.278 138.979-70.038 138.666-70.538-0.314-0.502-27.715-14.454-60.883-31.008l-60.288-30.096-139.984 69.974c-76.965 38.499-139.541 70.384-139.071 70.854 1.035 1.034 119.98 60.162 121.359 60.319 0.534 0.062 63.613-31.194 140.202-69.506zM482.224 302.621v-156.755l-21.005 10.973-264.289 137.693-0.314 153.933-0.314 153.904 285.921-142.96v-156.787zM812.976 447.869l-0.314-153.21-124.778-65.024c-47.558-24.755-95.107-49.533-142.646-74.333l-17.869-9.312 0.061 157.008 0.032 157.034 62.986 31.069c21.165 10.618 42.464 20.966 63.891 31.040 0.534 0 0.941-28.218 0.941-62.64 0-41.322 0.47-63.83 1.347-66.15 3.104-8.278 11.037-13.293 20.848-13.293 3.997-0.106 7.936 0.973 11.322 3.098s6.067 5.203 7.709 8.848c2.634 5.424 2.666 6.646 2.666 79.411v73.894l55.491 27.84c30.534 15.299 56.211 27.869 57.059 27.901 1.254 0.064 1.504-30.976 1.254-153.181z" />
<glyph unicode="&#xe928;" glyph-name="package-fill" d="M863.555 633.894c0 0.544 0 1.011 0 1.555-0.442 1.536-1.040 3.021-1.789 4.432v0.467c-0.896 1.543-1.965 2.979-3.187 4.278l-1.091 1.012c-0.963 0.917-2.003 1.75-3.11 2.488l-0.778 0.623h-0.778l-1.088 0.7-329.549 164.113c-6.541 3.251-14.227 3.251-20.765 0l-111.302-55.534 331.725-170.025c0.304-0.211 0.589-0.445 0.858-0.698 0.474-0.291 0.918-0.63 1.322-1.014 0.579-0.787 1.098-1.619 1.555-2.486 0.058-0.544 0.058-1.091 0-1.635 0.026-0.362 0.026-0.723 0-1.088v-180.445c0.157-2.87-1.277-5.59-3.734-7.078l-66.89-35.002c-3.792-2.019-8.502-0.579-10.522 3.21-0.595 1.12-0.909 2.368-0.912 3.635v177.725l-336.548 173.524-134.556-66.812-1.089-0.7h-0.778l-0.778-0.623c-1.106-0.74-2.147-1.572-3.111-2.488l-1.089-1.012c-1.223-1.299-2.292-2.734-3.189-4.278v-0.466c-0.746-1.413-1.346-2.898-1.789-4.434 0-0.544 0-1.011 0-1.555-0.295-1.302-0.477-2.63-0.544-3.965 0 0 0-0.624 0-1.011v-362.214c0.012-8.832 5.010-16.899 12.911-20.845l327.447-163.802c4.816-2.397 10.31-3.056 15.555-1.866l1.402 0.541c1.306 0.33 2.582 0.774 3.811 1.322l329.779 163.338c7.958 3.936 12.989 12.045 12.989 20.922v362.218c0 0 0 0.621 0 1.011-0.013 1.328-0.144 2.656-0.387 3.965z" />
<glyph unicode="&#xe929;" glyph-name="phone" d="M381.034 780.606c-11.069 26.736-40.25 40.967-68.135 33.348l-126.494-34.499c-25.012-6.9-42.404-29.611-42.404-55.485 0-355.622 288.349-643.971 643.971-643.971 25.875 0 48.586 17.392 55.485 42.403l34.499 126.496c7.619 27.885-6.611 57.066-33.347 68.134l-137.997 57.498c-23.427 9.773-50.595 3.018-66.55-16.675l-58.074-70.867c-101.197 47.869-183.13 129.802-230.995 230.998l70.864 57.926c19.693 16.099 26.448 43.123 16.675 66.555l-57.498 137.994v0.144z" />
<glyph unicode="&#xe92a;" glyph-name="play-sharp" d="M422.758 291.603l245.638 156.4-245.638 156.4v-312.8zM511.997 80.003c-50.294 0-97.827 9.661-142.598 28.979-44.774 19.322-83.875 45.693-117.301 79.12s-59.8 72.528-79.12 117.299c-19.32 44.774-28.98 92.307-28.98 142.602 0 50.906 9.66 98.746 28.98 143.52s45.693 83.72 79.12 116.84c33.427 33.12 72.527 59.34 117.301 78.66 44.771 19.32 92.304 28.98 142.598 28.98 50.906 0 98.746-9.66 143.52-28.98s83.722-45.54 116.842-78.66c33.12-33.12 59.338-72.065 78.659-116.84 19.318-44.774 28.979-92.614 28.979-143.52 0-50.294-9.661-97.827-28.979-142.602-19.322-44.771-45.539-83.872-78.659-117.299s-72.067-59.798-116.842-79.12c-44.774-19.318-92.614-28.979-143.52-28.979zM511.997 135.203c87.094 0 161.002 30.512 221.722 91.539s91.078 134.781 91.078 221.261c0 87.094-30.358 160.998-91.078 221.72-60.72 60.72-134.627 91.080-221.722 91.080-86.48 0-160.234-30.36-221.26-91.080-61.027-60.721-91.54-134.625-91.54-221.72 0-86.48 30.513-160.234 91.54-221.261s134.78-91.539 221.26-91.539z" />
<glyph unicode="&#xe92b;" glyph-name="plus-circle" d="M512 791.467c-189.693 0-343.467-153.774-343.467-343.467s153.774-343.466 343.467-343.466c189.693 0 343.466 153.773 343.466 343.466s-153.773 343.467-343.466 343.467zM144 448c0 203.241 164.759 368 368 368s368-164.759 368-368c0-203.242-164.758-368-368-368s-368 164.758-368 368zM639.382 473.254h-102.125v102.125c0 13.338-11.286 24.15-25.254 24.15-13.971 0-25.258-10.813-25.258-24.15v-102.125h-102.122c-13.338 0-24.15-11.286-24.15-25.254s10.813-25.254 24.15-25.254h102.122v-102.125c0-13.338 11.286-24.15 25.258-24.15 13.968 0 25.254 10.813 25.254 24.15v102.125h102.125c13.338 0 24.15 11.286 24.15 25.254s-10.813 25.254-24.15 25.254z" />
<glyph unicode="&#xe92c;" glyph-name="plus-fill" d="M880 448c0 203.241-164.758 368-368 368s-368-164.759-368-368c0-203.242 164.759-368 368-368s368 164.758 368 368zM537.264 473.254h102.125c13.338 0 24.147-11.283 24.147-25.254 0-13.968-10.81-25.254-24.147-25.254h-102.125v-102.125c0-13.338-11.286-24.15-25.258-24.15-13.968 0-25.254 10.813-25.254 24.15v102.125h-102.125c-13.338 0-24.147 11.286-24.147 25.254 0 13.971 10.81 25.254 24.147 25.254h102.125v102.125c0 13.338 11.286 24.15 25.254 24.15 13.971 0 25.258-10.813 25.258-24.15v-102.125z" />
<glyph unicode="&#xe92d;" glyph-name="plus-sharp" d="M471.277 612.365v-126.544h-250.183v-78.547h250.183v-250.182h79.504v250.182h252.131v78.547h-252.131v253.089h-79.504v-126.545z" />
<glyph unicode="&#xe92e;" glyph-name="search" d="M399.124 757.214c-42.701-5.399-82.972-22.877-116.080-50.38s-57.675-63.886-70.812-104.874c-11.305-35.713-13.553-73.678-6.543-110.48 7.011-36.799 23.060-71.277 46.704-100.336 8.398-10.411 27.766-29.066 38.488-37.125 31.979-23.955 69.65-39.163 109.298-44.125 11.807-1.458 41.37-1.489 53.208 0 35.604 4.4 72.946 18.5 101.022 38.208l11.59 8.121 32.507-33.78c36.473-37.866 142.271-143.354 165.665-165.168 8.4-7.81 16.89-15.062 18.904-16.083 8.090-4.186 15.279-0.124 30.959 17.476 8.862 9.979 9.917 13.262 6.383 20.080-2.014 3.907-106.943 110.322-170.406 172.826l-44.687 44.004 8.183 12.176c24.992 36.945 38.332 80.53 38.301 125.133 0.254 55.73-20.173 109.574-57.332 151.112-37.156 41.537-88.402 67.813-143.816 73.743-17.157 1.416-34.41 1.24-51.535-0.527zM451.187 709.895c68.080-9.080 125.688-58.755 145.709-125.659 5.545-18.5 6.662-27.083 6.631-50.977-0.031-18.904-0.434-23.955-2.51-33.621-11.931-55.411-45.832-99.815-95.167-124.577-24.449-12.238-45.894-17.538-74.218-18.314-28.418-0.804-51.504 3.534-75.643 14.162-39.096 16.955-70.763 47.445-89.186 85.87-13.319 27.394-19.341 57.76-17.484 88.16s11.53 59.808 28.082 85.377c13.988 20.924 31.951 38.897 52.867 52.898 35.821 23.058 78.718 32.523 120.919 26.681z" />
<glyph unicode="&#xe92f;" glyph-name="share" d="M689.622 774.19c-49.216-8.288-88.832-43.328-102.016-90.272-4.192-14.88-4.032-42.272 0.288-57.662l2.208-7.84-93.12-52.448c-65.504-36.896-93.536-52.096-94.56-51.328l-8.128 6.496c-23.296 18.419-52.192 28.323-81.89 28.064-17.344 0-26.912-1.408-41.472-6.080-41.92-13.472-73.344-46.112-83.616-86.816-3.136-12.448-3.136-41.536 0-53.984 5.12-20.384 15.936-39.36 31.104-54.816 49.792-50.56 135.234-51.040 185.762-1.024l7.584 7.52 85.536-41.056c47.040-22.56 86.656-41.472 88-42.016 2.4-0.96 2.432-1.248 0.896-8.416-1.888-8.992-2.144-30.56-0.48-41.024 8-50.112 51.776-91.264 106.176-99.776 13.597-2.112 41.28-0.576 54.624 3.072 23.053 6.282 43.955 18.739 60.448 36.032 16.256 17.12 27.264 38.72 31.168 61.248 1.792 10.368 0.768 36.512-1.76 45.92-5.802 21.165-17.066 40.432-32.662 55.872s-34.979 26.509-56.202 32.096c-21.69 6.010-44.544 6.435-66.438 1.229-21.894-5.203-42.115-15.866-58.778-30.989l-9.824-8.736-8.352 4.096c-4.608 2.24-44.16 21.216-87.936 42.144l-79.552 38.048 0.928 5.28c0.544 2.88 0.96 13.728 0.928 24.032-0.064 15.776-0.48 20.192-2.624 27.552-2.048 6.912-2.272 9.056-1.12 10.080 0.8 0.736 42.496 24.384 92.64 52.608l91.232 51.264 7.936-6.304c23.616-18.848 44.512-27.456 73.312-30.208 62.88-5.984 120.544 32.928 136.512 92.128 2.528 9.408 3.552 35.55 1.76 45.918-6.464 37.44-31.712 70.336-67.872 88.384-11.994 5.689-24.726 9.664-37.824 11.808-9.152 1.344-34.656 1.248-42.816-0.096zM728.054 720.91c33.696-7.136 57.856-37.216 55.616-69.248-1.44-20.798-11.552-37.854-29.792-50.334-11.872-8.096-22.688-11.52-38.528-12.192-23.328-0.96-40.448 5.536-56.352 21.472-13.92 13.92-20.352 30.782-18.88 49.63 1.312 16.832 7.2 29.056 20.032 41.6 8.883 8.508 19.725 14.698 31.568 18.024 11.84 3.326 24.32 3.686 36.336 1.048zM329.014 494.48c14.784-3.136 30.496-12.896 40.608-25.248 9.76-11.949 14.797-27.066 14.147-42.48s-6.938-30.054-17.667-41.136c-14.208-14.688-29.696-21.792-49.698-22.88-22.272-1.184-41.824 5.952-56.544 20.64-9.888 9.856-14.816 18.176-17.856 30.016-2.977 10.371-2.977 21.37 0 31.744 4.864 19.104 17.792 34.304 37.376 44.032 13.6 6.72 33.088 8.832 49.634 5.312zM737.11 303.408c20.416-7.232 36.8-23.264 43.488-42.56 14.752-42.432-20.544-87.296-68.672-87.296-44.384 0-78.912 38.304-71.072 78.784 4.672 24.16 25.536 45.824 50.656 52.608 12.8 3.456 33.472 2.752 45.6-1.536z" />
<glyph unicode="&#xe930;" glyph-name="share-fill" d="M689.622 774.191c-49.216-8.288-88.832-43.328-102.016-90.272-4.192-14.88-4.032-42.272 0.288-57.663l2.208-7.84-93.12-52.448c-65.504-36.896-93.536-52.096-94.56-51.328l-8.128 6.496c-23.296 18.422-52.192 28.323-81.89 28.064-17.344 0-26.912-1.408-41.472-6.080-41.92-13.472-73.344-46.112-83.616-86.816-3.136-12.448-3.136-41.536 0-53.984 5.12-20.384 15.936-39.36 31.104-54.816 49.792-50.56 135.234-51.040 185.762-1.024l7.584 7.52 85.536-41.056c47.040-22.56 86.656-41.472 88-42.016 2.4-0.96 2.432-1.248 0.896-8.416-1.888-8.992-2.144-30.56-0.48-41.024 8-50.112 51.776-91.264 106.176-99.776 13.6-2.112 41.28-0.576 54.624 3.072 23.053 6.282 43.955 18.739 60.448 36.032 16.256 17.12 27.264 38.72 31.168 61.248 1.792 10.368 0.768 36.512-1.76 45.92-5.802 21.165-17.066 40.432-32.662 55.872s-34.979 26.509-56.202 32.096c-21.69 6.010-44.544 6.435-66.438 1.232-21.894-5.206-42.115-15.866-58.778-30.992l-9.824-8.736-8.352 4.096c-4.608 2.24-44.16 21.216-87.936 42.144l-79.552 38.048 0.928 5.28c0.544 2.88 0.96 13.728 0.928 24.032-0.064 15.776-0.48 20.192-2.624 27.552-2.048 6.912-2.272 9.056-1.12 10.080 0.8 0.736 42.496 24.384 92.64 52.608l91.232 51.264 7.936-6.304c23.616-18.848 44.512-27.456 73.312-30.208 62.88-5.984 120.544 32.928 136.512 92.128 2.528 9.408 3.552 35.551 1.76 45.919-6.464 37.44-31.712 70.336-67.872 88.384-11.994 5.689-24.726 9.663-37.824 11.808-9.152 1.344-34.656 1.248-42.816-0.096z" />
<glyph unicode="&#xe931;" glyph-name="sign-in" d="M433.901 301.21l57.654-57.654 204.445 204.445-204.445 204.444-57.654-57.654 105.494-105.901h-395.395v-81.779h395.395l-105.494-105.901zM798.221 816h-572.443c-45.387 0-81.778-36.8-81.778-81.778v-163.556h81.778v163.556h572.443v-572.443h-572.443v163.555h-81.778v-163.555c0-44.979 36.391-81.779 81.778-81.779h572.443c44.979 0 81.779 36.8 81.779 81.779v572.443c0 44.978-36.8 81.778-81.779 81.778z" />
<glyph unicode="&#xe932;" glyph-name="sort" d="M79.239 786.772c-20.917-7.251-32.683-26.124-30.971-49.683 1.43-19.65 11.99-35.022 28.418-41.357 7.444-2.872 16.436-2.956 314.713-2.956h307.046l7.28 3.587c17.12 8.434 26.061 23.694 26.061 44.487 0 20.635-8.234 34.821-25.498 43.933l-7.843 4.141-305.498 0.346c-292.847 0.332-305.836 0.229-313.708-2.498zM768.589 592.714c-14.787-3.725-25.59-12.602-32.022-26.314l-4.006-8.538-0.87-285.037-34.454 34.058c-25.562 25.264-36.461 34.992-42.211 37.67-39.158 18.243-80.794-20.742-65.683-61.501 3.114-8.397 8.461-14.15 82.518-88.842 50.31-50.736 81.744-81.274 86.189-83.738 6.221-3.45 8.803-3.878 23.36-3.878 14.518 0 17.174 0.438 23.517 3.878 9.894 5.366 161.834 160.086 167.197 170.259 3.158 5.99 3.856 9.526 3.878 19.706 0.032 14.694-3.763 24.032-13.888 34.157-10.106 10.106-19.462 13.917-34.16 13.917-19.376 0-22.352-1.984-62.355-41.6l-34.438-34.112-0.902 283.514-3.475 8.576c-4.134 10.214-13.834 20.259-23.811 24.656-8.291 3.654-25.968 5.283-34.381 3.168zM78.292 542.141c-5.468-1.686-10.081-4.822-16.397-11.146-7.529-7.536-9.197-10.298-11.608-19.216-7.348-27.197 4.368-53.114 27.689-61.254 7.467-2.605 21.3-2.765 239.916-2.765h231.993l10.608 5.427c12.88 6.589 19.658 15.178 23.347 29.584 6.125 23.907-3.011 46.154-23.414 57.008l-7.75 4.125-233.388 0.291c-204.49 0.256-234.331 0-240.995-2.054zM87.956 299.709c-11.229-1.482-23.852-8.538-30.317-16.944-12.556-16.323-12.891-43.84-0.736-60.64 5.716-7.898 10.852-11.875 20.468-15.853l8.528-3.53 150.423-0.448c102.546-0.304 153.877 0.090 161.278 1.235 26.246 4.067 41.094 21.792 41.094 49.059 0 19.76-9.677 35.491-26.653 43.328l-9.792 4.522-152.746 0.218c-84.013 0.118-156.707-0.307-161.547-0.947z" />
<glyph unicode="&#xe933;" glyph-name="thumb-up" d="M435.775 700.097l-116.916-123.357 0.072-193.999c0.070-181.205 0.469-194.853 6.103-207.108 7.416-16.165 14.082-22.233 34.945-31.853l16.284-7.508h350.638l136.010 285.374 0.211 55.761c0.221 62.722-0.739 65.968-24.637 83.235-22.469 16.237-27.482 16.81-146.178 16.81-86.665 0-111.022 0.903-110.985 4.1 0.023 2.251 7.404 35.719 16.4 74.367 21.039 90.393 20.969 108.667-0.492 133.104-8.999 10.25-39.199 34.442-42.994 34.442-0.856 0-54.159-55.517-118.46-123.368zM112.21 334.721v-216.49h141.048v432.98h-141.048v-216.49z" />
<glyph unicode="&#xe934;" glyph-name="tick" d="M826.65 670.863c15.114-15.421 14.864-40.175-0.557-55.292l-398.915-390.979c-15.203-14.902-39.533-14.902-54.733 0l-174.527 171.053c-15.421 15.117-15.67 39.869-0.555 55.29 15.115 15.424 39.869 15.67 55.29 0.557l147.158-144.23 371.546 364.157c15.424 15.115 40.176 14.866 55.293-0.555z" />
<glyph unicode="&#xe935;" glyph-name="upload" d="M745.181 610.47c-7.958 46.767-31.379 89.446-67.194 121.835-39.795 36.021-91.53 55.847-145.405 55.847-41.632 0-82.192-11.805-116.934-34.053-28.928-18.465-52.96-43.437-69.949-72.798-7.347 1.362-14.998 2.119-22.653 2.119-65.049 0-118.007-52.367-118.007-116.687 0-8.326 0.918-16.346 2.449-24.218-42.091-30.269-67.652-79.002-67.652-130.915 0-41.923 15.765-82.634 44.54-114.87 29.54-32.995 68.57-52.518 110.202-54.787 0.459 0 0.765 0 1.224 0h131.631c11.478 0 20.662 9.078 20.662 20.432 0 11.35-9.184 20.429-20.662 20.429h-131.019c-62.601 3.786-115.252 62.659-115.252 128.95 0 42.829 23.265 82.784 60.764 104.429 8.724 4.995 12.397 15.437 9.030 24.819-3.061 8.173-4.592 16.8-4.592 26.032 0 41.773 34.438 75.826 76.682 75.826 9.030 0 17.907-1.514 26.173-4.539 10.102-3.635 21.277 0.906 25.866 10.442 28.624 60.085 90.458 98.829 157.651 98.829 90.304 0 164.842-66.895 173.414-155.585 0.918-9.232 7.958-16.65 17.142-18.16 68.112-11.504 119.539-73.709 119.539-144.688 0-75.219-59.846-140.602-133.619-146.202h-112.806c-11.478 0-20.662-9.082-20.662-20.432s9.184-20.432 20.662-20.432h113.571c0.458 0 0.918 0 1.53 0 46.682 3.328 90.304 24.518 122.752 59.933 32.294 35.114 49.898 80.214 49.898 127.133-0.154 84.906-58.774 160.426-138.976 181.312zM636.051 392.227c8.112 8.022 8.112 20.886 0 28.909l-109.437 108.211c-3.824 3.786-9.184 6.054-14.541 6.054s-10.714-2.118-14.541-6.054l-109.434-108.211c-8.112-8.022-8.112-20.886 0-28.909 3.978-3.933 9.334-6.054 14.541-6.054 5.203 0 10.56 1.968 14.538 6.054l74.234 73.405v-337.354c0-11.35 9.184-20.432 20.662-20.432 11.482 0 20.662 9.082 20.662 20.432v337.354l74.234-73.405c7.962-8.019 20.97-8.019 29.082 0z" />
<glyph unicode="&#xe936;" glyph-name="user" d="M491.933 772.717c-16.772-2.583-32.985-7.991-47.951-15.992-14.659-7.628-24.868-15.255-37.966-28.27-22.488-22.401-36.439-48.715-42.847-80.87-2.836-14.293-3.035-40.805-0.369-55.094 4.338-23.89 14.159-46.449 28.694-65.902 14.535-19.45 33.386-35.26 55.069-46.189 25.063-12.577 53.080-18.088 81.042-15.946 27.961 2.144 54.809 11.863 77.666 28.11 11.171 7.857 28.836 25.522 36.69 36.693 16.462 23.133 26.255 50.344 28.303 78.662 2.051 28.317-3.717 56.654-16.676 81.916-10.529 20.562-25.491 38.53-43.805 52.608s-39.526 23.915-62.104 28.801c-11.795 2.637-43.753 3.459-55.746 1.474zM542.435 724.626c22.376-5.988 42.335-18.792 57.108-36.635 8.363-10.35 17.892-28.809 20.896-40.435 6.783-25.206 4.152-52.019-7.401-75.425-16.927-34.735-48.317-56.711-87.192-61.108-21.436-2.408-45.481 3.035-65.446 14.801-17.895 10.926-32.396 26.615-41.882 45.314-31.502 64.367 5.986 140.246 76.505 154.85 10.435 2.155 37.202 1.389 47.411-1.361zM368.898 400.834c-33.659-3.478-65.079-18.494-88.923-42.505-21.361-21.38-35.728-48.739-41.201-78.46-1.588-8.307-1.843-16.899-2.183-71.965-0.284-46.021-0.085-63.944 0.794-67.885 0.964-4.422 2.127-6.324 6.352-10.575 4.253-4.254 6.125-5.359 10.576-6.324 4.026-0.878 69.954-1.077 264.415-0.85l259.029 0.282 3.972 2.157c4.704 2.582 8.543 6.498 11.028 11.258 1.731 3.258 1.871 7.087 2.157 59.544 0.31 56.543-0.369 74.889-3.289 88.812-2.737 12.471-7.004 24.557-12.704 35.983-11.155 22.227-27.757 41.267-48.252 55.355-20.496 14.085-44.221 22.755-68.971 25.203-12.958 1.275-280.464 1.275-292.799-0.028zM664.191 353.677c39.53-6.749 70.324-35.133 81.098-74.687l2.61-9.557 0.341-50.359 0.338-50.359h-465.57v47.014c0 50.614 0.425 56.37 5.359 70.802 11.994 35.164 44.547 62.554 80.502 67.658 3.261 0.481 68.931 0.906 145.945 0.993 124.736 0.112 141.042-0.059 149.377-1.505z" />
<glyph unicode="&#xe937;" glyph-name="user-add" d="M400.012 733.21c-6.541-1.040-12.999-2.545-19.326-4.502-48.463-15.084-83.706-55.115-95.033-107.906-3.155-14.684-3.155-44.162 0-58.846 13.277-61.968 60.133-106.356 119.091-112.783 53.366-5.821 105.9 23.4 131.624 73.21 11.956 23.142 16.403 41.869 16.403 68.996 0 13.104-0.689 21.994-2.324 29.68-15.627 73.667-79.49 121.27-150.435 112.151zM378.076 373.813c-55.029-6.681-110.087-22.537-150.779-43.356-37.938-19.444-66.385-46.428-75.074-71.174-4.215-11.987-5.104-22.481-5.133-60.506v-37.109h393.634l-11.069 5.793c-33.435 17.492-57.266 44.42-72.006 81.383-11.096 27.843-16.257 57.58-17.060 98.645l-0.574 27.757-23.543 0.174c-12.819 0.164-25.637-0.372-38.397-1.607zM658.798 521.604c-35.672-4.53-69.232-19.425-96.523-42.84-30.54-25.637-52.333-63.029-60.478-103.809-3.41-17.033-3.097-49.695 0.633-67.128 16.058-75.019 74.355-131.193 149.746-144.328 13.908-2.436 43.213-2.436 57.121 0 25.712 4.534 50.213 14.314 71.978 28.734 13.476 8.946 47.402 46.8 47.402 46.8s24.030 44.792 29.649 70.973c3.497 16.347 3.212 50.269-0.574 67.99-8.142 37.91-24.889 67.963-52.733 94.658-24.232 23.599-54.744 39.716-87.893 46.428-14.367 3.010-45.22 4.36-58.328 2.523zM692.752 454.848c2.122-1.235 5.648-4.475 7.857-7.199l3.987-4.962 0.4-37.966 0.4-37.938h36.104c40.088 0 41.609-0.258 48.578-8.173 2.405-2.687 4.174-5.883 5.173-9.349 0.996-3.466 1.201-7.112 0.596-10.668-0.608-3.556-2.008-6.929-4.099-9.868s-4.819-5.368-7.978-7.106c-5.564-3.212-5.936-3.243-42.012-3.615l-36.389-0.4-0.372-37.767c-0.372-37.506-0.4-37.795-3.497-42.297-2.814-4.291-6.864-7.627-11.618-9.564s-9.982-2.383-14.994-1.275c-6.225 1.176-15.63 9.837-17.349 16.030-0.748 2.638-1.319 20.16-1.319 39.858v35.157h-34.527c-20.101 0-36.532 0.574-39.371 1.378-5.765 1.576-13.163 7.714-16.030 13.306-2.839 5.505-2.669 16.344 0.372 21.535 1.347 2.293 4.673 5.964 7.398 8.173l4.962 3.984 77.197 0.776 0.028 35.759c0.028 39.055 0.543 42.152 8.059 49.093 3.882 3.314 8.67 5.381 13.743 5.933 5.077 0.552 10.197-0.438 14.702-2.836z" />
<glyph unicode="&#xe938;" glyph-name="user-fill" d="M512 448c95.68 0 173.174 82.339 173.174 184s-77.494 184-173.174 184c-95.68 0-173.178-82.34-173.178-184s77.498-184 173.178-184zM512 356c-115.597 0-346.354-61.642-346.354-184v-92h692.706v92c0 122.358-230.758 184-346.352 184z" />
<glyph unicode="&#xe939;" glyph-name="verify" d="M471.053 846.669c-6.89-0.641-20.954-2.725-31.238-4.616-62.438-11.475-118.022-36.028-170.564-75.358-19.863-14.873-59.333-54.011-73.974-73.339-46.774-61.705-73.717-129.241-81.791-204.857-1.986-18.72-1.986-61.798 0-80.582 7.901-75.427 36.794-147.123 83.393-206.941 13.071-16.989 51.035-54.973 68.015-68.048 59.786-46.624 131.443-75.533 206.832-83.437 18.742-1.987 61.798-1.987 80.541 0 75.389 7.904 147.046 36.813 206.832 83.437 16.979 13.075 54.944 51.059 68.016 68.048 46.598 59.818 75.491 131.514 83.392 206.941 1.987 18.752 1.987 61.83 0 80.582-8.042 75.776-36.202 145.686-83.36 206.94-14.416 18.719-53.021 56.703-72.403 71.224-61.322 45.965-130.97 73.339-203.885 80.070-18.358 1.731-61.514 1.667-79.805-0.064zM720.653 618.768c7.978-2.406 20.698-14.618 24.573-23.594 3.91-9.104 3.203-19.36-1.891-27.917-1.92-3.206-66.477-68.79-143.43-145.718-147.978-147.898-145.35-145.459-158.198-145.523-13.68-0.096-12.88-0.771-88.422 74.653-40.655 40.611-71.795 72.794-73.493 76-3.876 7.213-4.069 20.064-0.449 27.501 3.588 7.341 13.616 17.277 20.632 20.483 3.204 1.475 8.586 2.691 11.95 2.691 14.448 0.064 13.296 0.995 73.078-58.528l55.552-55.293 123.533 123.696c67.92 68.016 125.331 124.976 127.542 126.611 8.618 6.282 18.774 8.013 29.024 4.938z" />
<glyph unicode="&#xe93a;" glyph-name="visibility-off" d="M791.936 756.225c-3.552-1.6-28.928-25.6-62.592-59.2l-56.64-56.544-18.72 7.2c-78.272 30.144-159.072 35.104-238.368 14.72-94.72-24.385-183.103-85.089-254.655-174.945-16.096-20.224-18.976-27.232-15.84-38.496 2.752-9.824 25.92-38.592 55.424-68.768 35.136-36 63.488-59.168 98.656-80.672 9.568-5.856 17.76-10.912 18.176-11.232s-21.568-23.040-48.864-50.496c-53.568-53.888-54.592-55.232-53.056-71.36 0.715-7.306 3.946-14.138 9.141-19.328s12.031-8.413 19.339-9.12c16.32-1.568 16.768-1.216 80.479 62.144l58.976 58.688 16.224-4.992c18.688-5.76 41.76-10.848 63.776-14.048 19.744-2.912 77.376-2.976 97.28-0.128 76.416 10.944 147.232 42.080 211.264 92.928 42.656 33.856 104.704 101.792 107.712 117.952 0.64 3.36 0.384 9.024-0.576 12.576-2.432 8.96-26.912 39.168-55.552 68.512-26.656 27.328-46.976 44.928-73.376 63.584l-17.76 12.576 50.912 51.201c48.256 48.48 51.040 51.616 52.64 59.36 4.256 20.608-8.896 38.592-29.184 39.936-5.030 0.427-10.090-0.272-14.816-2.048zM553.728 604.352c15.904-4.64 40.8-16.576 49.6-23.776l5.12-4.192-50.208-50.368-9.856 4.576c-14.496 6.752-24.32 8.576-41.056 7.648-25.6-1.376-47.424-13.152-62.56-33.728-18.304-24.832-20.896-62.176-6.112-88.096l3.040-5.344-25.504-25.376-25.472-25.408-3.392 4.288c-5.504 6.944-15.104 24.576-19.584 36.032-10.208 25.984-12.608 63.2-5.952 91.232 14.24 60.032 65.28 107.040 126.88 116.896 16.608 2.656 48.288 0.512 65.056-4.384zM654.72 515.328c11.712-26.464 14.816-65.92 7.488-95.424-5.405-21.754-15.446-42.083-29.437-59.594-13.99-17.514-31.597-31.798-51.619-41.878-25.216-12.64-39.072-15.84-69.12-16.032-20.992-0.096-26.784 0.48-38.24 3.776-14.912 4.32-30.016 10.432-30.016 12.128 0 0.576 12.096 13.088 26.88 27.776l26.88 26.688 17.056 0.8c20.416 0.96 32 4.896 46.88 15.84 21.376 15.712 33.024 38.752 33.536 66.272l0.288 15.168 27.040 27.072c14.88 14.88 27.296 27.072 27.584 27.072s2.464-4.352 4.8-9.664z" />
<glyph unicode="&#xe93b;" glyph-name="visibility-on" d="M512 667.361c-140.621 0-268.143-76.936-362.241-201.896-7.679-10.24-7.679-24.544 0-34.778 94.098-125.117 221.62-202.051 362.241-202.051s268.144 76.934 362.243 201.898c7.677 10.24 7.677 24.541 0 34.778-94.099 125.114-221.622 202.049-362.243 202.049zM522.086 293.53c-93.344-5.875-170.432 71.059-164.557 164.557 4.816 77.088 67.296 139.565 144.384 144.384 93.344 5.875 170.432-71.062 164.557-164.557-4.966-76.934-67.45-139.418-144.384-144.384zM517.418 364.893c-50.285-3.165-91.837 38.243-88.525 88.525 2.557 41.555 36.282 75.133 77.84 77.837 50.285 3.165 91.837-38.237 88.525-88.525-2.707-41.706-36.432-75.28-77.84-77.837z" />
<glyph unicode="&#xe93c;" glyph-name="zoom" d="M480 768c160 0 288-128 288-288 0-57.6-16-108.8-44.8-153.6l89.6-89.6c25.6-25.6 25.6-64 0-89.6s-64-25.6-89.6 0l-89.6 89.6c-44.8-28.8-96-44.8-153.6-44.8-160 0-288 128-288 288s128 288 288 288zM480 704c-124.8 0-224-99.2-224-224s99.2-224 224-224c121.6 0 224 99.2 224 224s-99.2 224-224 224zM480 640c19.2 0 32-12.8 32-32v-96h96c16 0 32-12.8 32-32s-12.8-32-32-32h-96v-96c0-19.2-12.8-32-32-32s-32 12.8-32 32v96h-96c-19.2 0-32 12.8-32 32s16 32 32 32h96v96c0 16 12.8 32 32 32z" />
</font>
</defs>
</svg>
